Интерстеллар / Interstellar (2014 , DVD5)

Здесь публикуются фильмы которые были сняты не на территории России. Фильмы разного жанра и качества включая HD, DVD, CamRip, TS.

Сообщение zloyGraf » 25 мар 2015, 17:45

  • Постеры
  • Скриншоты
«Следующий шаг человечества станет величайшим»

Год выпуска: 2014
Производство: США, Великобритания, Канада / Paramount Pictures, Warner Bros. Pictures, Legendary Pictures, Syncopy, Lynda Obst Productions
Жанр: Фантастика, драма, приключения

Режиссер: Кристофер Нолан
Продюсеры: Кристофер Нолан, Линда Обст, Эмма Томас
Актеры: Мэттью МакКонахи, Энн Хэтэуэй, Джессика Честейн, Маккензи Фой, Майкл Кейн, Дэвид Гяси, Уэс Бентли, Кейси Аффлек, Джон Литгоу, Мэтт Дэймон

Описание фильма:
Когда засуха приводит человечество к продовольственному кризису, коллектив исследователей и учёных отправляется сквозь червоточину (которая предположительно соединяет области пространства-времени через большое расстояние) в путешествие, чтобы превзойти прежние ограничения для космических путешествий человека и переселить человечество на другую планету.

Перевод: Дублированный
Язык субтитров: Английский, французский, русский
Дата мировой премьеры: 26 октября 2014
Дата российской премьеры: 6 ноября 2014, «Каро-Премьер»
Дата выхода DVD релиза: 9 апреля 2015, «CP Дистрибуция»


Продолжительность: 02:48:53
Качество видео: DVD5

Видео: MPEG-2, 720x480@853x480 (NTSC 16:9), ~1975 Кбит/сек
Аудио 1: AC3 5.1, 448 Кбит/сек [Английский - оригинал]
Аудио 2: AC3 5.1, 384 Кбит/сек [Французский - дублированный]
Аудио 3: AC3 5.1, 448 Кбит/сек [Русский - дублированный]
Аудио 4: AC3 5.1, 384 Кбит/сек [Английский - описательный]

Доп. материалы: Трейлеры
Title: Interstellar (2014) DVD5 NTSC
Size: 4.37 Gb ( 4 583 740,00 KBytes ) - DVD-5
Enabled regions: 1, 2, 3, 4, 5, 6, 7, 8

VTS_01 :
Play Length: 02:48:53+00:00:00+00:00:00
Video: NTSC 16:9 (720x480) VBR, Auto Letterboxed
Audio:
English (Dolby AC3, 6 ch)
Francais (Dolby AC3, 6 ch)
Russian (Dolby AC3, 6 ch)
English (Dolby AC3, 6 ch)
Subtitles:
English
Francais
Russian
Russian

VTS_02 :
Play Length: 00:05:08+{00:05:08}
Video: NTSC 16:9 (720x480) VBR, Auto Letterboxed
Audio:
Not specified (Dolby AC3, 2 ch)
English (Dolby AC3, 2 ch)
Subtitles:
English
Francais
Espanol
Espanol

VTS_03 :
Play Length: 00:00:22
Video: NTSC 16:9 (720x480) VBR, Auto Pan&Scan
Audio:
Not specified (Dolby AC3, 2 ch)

* Menus Information *

VIDEO_TS Menu
Video:
NTSC 16:9 (720x480) VBR
Auto Pan&Scan
Language Unit :
Title Menu

VTS_01 Menu
Video:
NTSC 16:9 (720x480) VBR
Auto Pan&Scan
Audio:
Not specified (Dolby AC3, 2 ch)
English Language Unit :
Root Menu

VTS_02 Menu
Video:
NTSC 4:3 (720x480) VBR
Auto Pan&Scan, Auto Letterboxed
Language Unit :
Root Menu

VTS_03 Menu
Video:
NTSC 4:3 (720x480) VBR
Auto Pan&Scan, Auto Letterboxed
Language Unit :
Root Menu
Общее
Полное имя : G:ВидеоInterstellar (2014) DVD5 NTSCVIDEO_TSVTS_01_2.VOB
Формат : MPEG-PS
Размер файла : 1024 Мбайт
Продолжительность : 38 м.
Режим общего битрейта : Переменный
Общий поток : 3713 Кбит/сек

Видео
Идентификатор : 224 (0xE0)
Формат : MPEG Video
Версия формата : Version 2
Профиль формата : Main@Main
Параметр BVOP формата : Да
Параметр матрицы формата : Выборочная
Параметр GOP формата : Variable
Продолжительность : 38 м.
Вид битрейта : Переменный
Битрейт : 1975 Кбит/сек
Максимальный битрейт : 7500 Кбит/сек
Ширина : 720 пикселей
Высота : 480 пикселей
Соотношение сторон : 16:9
Частота кадров : 23,976 кадра/сек
Стандарт вещания : NTSC
Цветовое пространство : YUV
Субдискретизация насыщенности : 4:2:0
Битовая глубина : 8 бит
Тип развёртки : Прогрессивная
Порядок развёртки : 2:3 Pulldown
Метод сжатия : С потерями
Бит/(Пиксели*Кадры) : 0.238
Временной код первого кадра : 01:40:24;00
Оригинал временного кода : Group of pictures header
Размер потока : 545 Мбайт (53%)

Аудио #1
Идентификатор : 189 (0xBD)-128 (0x80)
Формат : AC-3
Формат/Информация : Audio Coding 3
Расширение режима : CM (complete main)
Параметр Endianness формата : Big
Режим смешивания : DVD-Video
Продолжительность : 38 м.
Вид битрейта : Постоянный
Битрейт : 448 Кбит/сек
Каналы : 6 каналов
Расположение каналов : Front: L C R, Side: L R, LFE
Частота : 48,0 КГц
Битовая глубина : 16 бит
Метод сжатия : С потерями
Задержка видео : -632 мс.
Размер потока : 124 Мбайт (12%)

Аудио #2
Идентификатор : 189 (0xBD)-129 (0x81)
Формат : AC-3
Формат/Информация : Audio Coding 3
Расширение режима : CM (complete main)
Параметр Endianness формата : Big
Режим смешивания : DVD-Video
Продолжительность : 38 м.
Вид битрейта : Постоянный
Битрейт : 384 Кбит/сек
Каналы : 6 каналов
Расположение каналов : Front: L C R, Side: L R, LFE
Частота : 48,0 КГц
Битовая глубина : 16 бит
Метод сжатия : С потерями
Задержка видео : -600 мс.
Размер потока : 106 Мбайт (10%)

Аудио #3
Идентификатор : 189 (0xBD)-130 (0x82)
Формат : AC-3
Формат/Информация : Audio Coding 3
Расширение режима : CM (complete main)
Параметр Endianness формата : Big
Режим смешивания : DVD-Video
Продолжительность : 38 м.
Вид битрейта : Постоянный
Битрейт : 448 Кбит/сек
Каналы : 6 каналов
Расположение каналов : Front: L C R, Side: L R, LFE
Частота : 48,0 КГц
Битовая глубина : 16 бит
Метод сжатия : С потерями
Задержка видео : -632 мс.
Размер потока : 124 Мбайт (12%)

Аудио #4
Идентификатор : 189 (0xBD)-131 (0x83)
Формат : AC-3
Формат/Информация : Audio Coding 3
Расширение режима : CM (complete main)
Параметр Endianness формата : Big
Режим смешивания : DVD-Video
Продолжительность : 38 м.
Вид битрейта : Постоянный
Битрейт : 384 Кбит/сек
Каналы : 6 каналов
Расположение каналов : Front: L C R, Side: L R, LFE
Частота : 48,0 КГц
Битовая глубина : 16 бит
Метод сжатия : С потерями
Задержка видео : -600 мс.
Размер потока : 106 Мбайт (10%)

Текст #1
Идентификатор : 189 (0xBD)-32 (0x20)
Формат : RLE
Формат/Информация : Run-length encoding
Режим смешивания : DVD-Video
Продолжительность : 38 м.
Задержка видео : 3 с. 620 мс.

Текст #2
Идентификатор : 189 (0xBD)-33 (0x21)
Формат : RLE
Формат/Информация : Run-length encoding
Режим смешивания : DVD-Video
Продолжительность : 38 м.
Задержка видео : 5 с. 188 мс.

Текст #3
Идентификатор : 189 (0xBD)-34 (0x22)
Формат : RLE
Формат/Информация : Run-length encoding
Режим смешивания : DVD-Video
Продолжительность : 38 м.
Задержка видео : 5 с. 122 мс.

Текст #4
Идентификатор : 224 (0xE0)-CC3
Формат : EIA-608
Режим смешивания, доп. информация : Muxed in Video #1
Вид битрейта : Постоянный
Размер потока : 0,00 байт (0%)

Меню

Исходником послужил зарубежный DVD5. Испанскую звуковую дорожку заменил на русскую вместе с субтитрами. Меню анимированное на английском языке. Предупреждающие надписи и один трейлер удалил.
Использовались программы: MKVExtractGUI2, DVD ReMake Pro, PgcDemux, Adobe PhotoShop, MuxMan, Subtitle Workshop, MaestroSBT, DVDSubEdit

Работоспособность проверена на софтовом и на бытовом плеере.

Аватара пользователя
zloyGraf
 
Раздал: 112.16 ГБ
Скачал: 0 байт
Ратио: Seed.
Сообщения: 11
Зарегистрирован: 21 мар 2015, 19:31
  • Торрент
Автор: zloyGraf Хэш: d81bb6408219e696a29cb0a44079a9f58df222db
Добавлен: 25 мар 2015, 17:44 Приватный: Нет (DHT включён)
Статус: Проверен
Размер: 4.37 ГБ (4 693 749 760 байт)
Изменил: VipeR (25 мар 2015, 18:32)
Скачали: 22 (Раздающих: 0%)
Причина:
---
Здоровье: 0%
Сидеров: 0 Личеров: 0
Скорость раздачи: 0 байт/сек Скорость скачивания: 0 байт/сек
Последний сидер: 1 год 2 дня 5 часов 21 минуту 11 секунд назад Последний личер: 9 месяцев 24 дня 16 часов 56 минут 29 секунд назад
Зарубежное кино Скачать торрент
Скачать торрент
[ Размер 12.17 КБ / Просмотров 167 ]
  • Ссылки на тему
  • Ссылка:
    BBcode:
    HTML:
     

Вернуться в Зарубежное кино

Кто сейчас на конференции

Сейчас этот форум просматривают: нет зарегистрированных пользователей и гости: 1

Ресурс не предоставляет электронные версии произведений, а занимается лишь коллекционированием и каталогизацией ссылок, присылаемых и публикуемых на форуме нашими читателями. Если вы являетесь правообладателем какого-либо представленного материала и не желаете чтобы ссылка на него находилась в нашем каталоге, свяжитесь с нами и мы незамедлительно удалим её. Файлы для обмена на трекере предоставлены пользователями сайта, и администрация не несёт ответственности за их содержание. Просьба не заливать файлы, защищенные авторскими правами, а также файлы нелегального содержания!
cron