Угнать и продать / Rev (Ант Хорасанли) [2020, боевик, драма, WEB-DL 1080p] [DUB] [iTunes]

Здесь публикуются фильмы которые были сняты не на территории России. Фильмы разного жанра и качества включая HD, DVD, CamRip, TS.

Угнать и продать / Rev (Ант Хорасанли) [2020, боевик, драма, WEB-DL 1080p] [DUB] [iTunes]

Сообщение K15 » 01 апр 2021, 22:52

  • Скриншоты
Информация о фильме
Название: Угнать и продать
Оригинальное название: Rev
Год выхода: 2020
Жанр: боевик, драма
Режиссер: Ант Хорасанли


В ролях: Сэм Асанте, Себастьян Дир, Франциска Дэннис, Франческо Филиче, Вивика А. Фокс, Ханна Гордон, Юнь Лю, Дэннис Нимо, Рис Пресли, Шон Рей


О фильме: Молодой угонщик дорогих автомобилей после неудачного дела вынужден согласиться на сотрудничество с полицией. Он должен внедриться в банду и помочь стражам порядка раскрыть крупное предприятие по контрабанде сотен экзотических суперкаров.





Выпущено: Канада
Студия: N5 Pictures
Продолжительность: 01:31:14
Озвучивание: Дублированный iTunes


Файл
Формат: MKV
Качество: WEB-DL 1080p | AMAZON
Видео: x264, 6442 Kb/s, 1920x816, 23.976 fps
Аудио 1: Russian: 48 kHz, AC3, 384 Kbit/s (6 ch)
Аудио 2: English: 48 kHz, E-AC3, 640 Kbit/s (6 ch)
Субтитры: English
Дополнительно: Нет


Complete name: Ugnat.i.prodat.2020.1080p.AMZN.WEB-DL.ELEKTRI4KA.UNIONGANG.mkv
Format: Matroska
Format version: Version 4 / Version 2
File size: 4.76 GiB
Duration: 1 h 31 min
Overall bit rate: 7 467 kb/s
Movie name: .ELEKTRI4KA.UNIONGANG.
Encoded date: UTC 2020-12-17 16:03:35
Writing application: mkvmerge v8.3.0 ('Over the Horizon') 64bit
Writing library: libebml v1.3.1 + libmatroska v1.4.2

Video
ID: 1
Format: AVC
Format/Info: Advanced Video Codec
Format profile: High@L4
Format settings, CABAC: Yes
Format settings, Reference frames: 4 frames
Codec ID: V_MPEG4/ISO/AVC
Duration: 1 h 31 min
Bit rate mode: Constant
Bit rate: 6 442 kb/s
Nominal bit rate: 10 000 kb/s
Width: 1 920 pixels
Height: 816 pixels
Display aspect ratio: 2.35:1
Frame rate mode: Constant
Frame rate: 23.976 (24000/1001) FPS
Color space: YUV
Chroma subsampling: 4:2:0
Bit depth: 8 bits
Scan type: Progressive
Bits/(Pixel*Frame): 0.171
Stream size: 4.10 GiB (86%)
Title: .ELEKTRI4KA.UNIONGANG.
Default: Yes
Forced: No
Color range: Limited
Color primaries: BT.709
Transfer characteristics: BT.709
Matrix coefficients: BT.709

Audio #1
ID: 2
Format: AC-3
Format/Info: Audio Coding 3
Mode extension: CM (complete main)
Format settings, Endianness: Big
Codec ID: A_AC3
Duration: 1 h 31 min
Bit rate mode: Constant
Bit rate: 384 kb/s
Channel(s): 6 channels
Channel positions: Front: L C R, Side: L R, LFE
Sampling rate: 48.0 kHz
Frame rate: 31.250 FPS (1536 spf)
Bit depth: 16 bits
Compression mode: Lossy
Stream size: 251 MiB (5%)
Title: Dub (iTunes)
Language: Russian
Default: Yes
Forced: Yes

Audio #2
ID: 3
Format: E-AC-3
Format/Info: Enhanced Audio Coding 3
Format settings, Endianness: Big
Codec ID: A_EAC3
Duration: 1 h 31 min
Bit rate mode: Constant
Bit rate: 640 kb/s
Channel(s): 6 channels
Channel positions: Front: L C R, Side: L R, LFE
Sampling rate: 48.0 kHz
Frame rate: 187.500 FPS (256 spf)
Compression mode: Lossy
Stream size: 418 MiB (9%)
Title: Original
Language: English
Default: No
Forced: No

Text #1
ID: 4
Format: UTF-8
Codec ID: S_TEXT/UTF8
Codec ID/Info: UTF-8 Plain Text
Duration: 1 h 26 min
Bit rate: 56 b/s
Count of elements: 1133
Stream size: 35.9 KiB (0%)
Language: English
Default: No
Forced: No

Text #2
ID: 5
Format: UTF-8
Codec ID: S_TEXT/UTF8
Codec ID/Info: UTF-8 Plain Text
Duration: 1 h 29 min
Bit rate: 61 b/s
Count of elements: 1327
Stream size: 40.2 KiB (0%)
Title: SDH
Language: English
Default: No
Forced: No
K15
 
Раздал: 0 байт
Скачал: 0 байт
Ратио: Inf.
Сообщения: 12
Зарегистрирован: 01 апр 2021, 22:30
Откуда: Россия
  • Торрент
Автор: K15 Хэш: e5728507b9f78bc50c74a41d46936856bc1759d6
Добавлен: 01 апр 2021, 22:51 Приватный: Нет (DHT включён)
Статус: Непроверен
Размер: 4.76 ГБ (5 110 097 246 байт)
Изменил:
---
Скачали: 0 (Раздающих: 0%)
Причина:
---
Здоровье: 100%
Сидеров: 1 Личеров: 0
Скорость раздачи: 0 байт/сек Скорость скачивания: 0 байт/сек
Последний сидер: 16 дней 15 часов 52 минуты 43 секунды назад Последний личер: Нет
Зарубежное кино Данный торрент является блокированным, причина: непроверенный торрент
[rutracker.ru].t155635 [f0499354.xs...
[ Размер 13.45 КБ / Просмотров 1 ]

Вернуться в Зарубежное кино

Кто сейчас на конференции

Сейчас этот форум просматривают: нет зарегистрированных пользователей и гости: 4

cron
Ресурс не предоставляет электронные версии произведений, а занимается лишь коллекционированием и каталогизацией ссылок, присылаемых и публикуемых на форуме нашими читателями. Если вы являетесь правообладателем какого-либо представленного материала и не желаете чтобы ссылка на него находилась в нашем каталоге, свяжитесь с нами и мы незамедлительно удалим её. Файлы для обмена на трекере предоставлены пользователями сайта, и администрация не несёт ответственности за их содержание. Просьба не заливать файлы, защищенные авторскими правами, а также файлы нелегального содержания!
tracker_cron tracker_cron tracker_cron